Posteado por:
campitos
New Full User



The Little Rascals (1994) FullHD 1080p (Ing-Lat) [MULTI]




Título original: The Little Rascals
Año: 1994
Duración: 78 min.
País: Estados Unidos Estados Unidos
Director: Penelope Spheeris
Guion: Penelope Spheeris, Paul Guay, Stephen Mazur (Historia: Penelope Spheeris, Robert Wolterstorff, Mike Scott, Paul Guay, Stephen Mazur)
Música: William Ross
Fotografía: Richard Bowen
Reparto: Travis Tedford, Bug Hall, Brittany Ashton Holmes, Kevin Jamal Woods, Zachary Mabry, Ross Bagley, Sam Saletta, Blake Jeremy Collins, Blake McIver Ewing, Jordan Warkol, Courtland Mead, Juliette Brewer, Heather Karasek, Mel Brooks, Whoopi Goldberg, Daryl Hannah, Ashley Olsen, Mary-Kate Olsen, Raven, Lea Thompson, Donald Trump
Productora: Universal Pictures / King World Entertainment / Amblin Entertainment
Género: Comedia. Infantil | Infancia. Cine familiar
Sinopsis: panky y los miembros del "Club de machotes odia-mujeres" se reúnen. Alfalfa se ha enamorado de Darla, amenazando la existencia del gran club "solo para chicos". Futuros problemas se avecinarán cuando destruyen su centro de operaciones, y los matones del barrio roban su coche, "The Blur". ¿Cómo podrán ganar la carrera y el gran trofeo? Además de esta serie de infortunios aparece un nuevo chico en el barrio, Waldo, que es un refinado niño rico, interesado también en Darla. A través de las travesuras y el jaleo, trucos e ingenuidad, los pillos aprenderán el valor de la verdadera amistad. e incluso el gusto por las chicas.
http://www.imdb.com/title/tt0110366
Trailer
https://youtu.be/8rwbA5mInW8


Cita:


Format : Matroska
Format version : Version 4 / Version 2
File size : 18.5 GiB
Duration : 2 h 34 min
Overall bit rate : 17.2 Mb/s
Encoded date : UTC 2017-09-17 05:57:38
Writing application : mkvmerge v15.0.0 (Duel with the Devil) 64-bit
Writing library : libebml v1.3.5 + libmatroska v1.4.5
Video
ID : 1
Format : AVC
Format/Info : Advanced Video Codec
Format profile : High@L4.1
Format settings, CABAC : Yes
Format settings, ReFrames : 4 frames
Codec ID : V_MPEG4/ISO/AVC
Duration : 2 h 34 min
Bit rate : 15.0 Mb/s
Width : 1 920 pixels
Height : 1 008 pixels
Display aspect ratio : 1.905
Frame rate mode : Constant
Frame rate : 23.976 (24000/1001) FPS
Color space : YUV
Chroma subsampling : 4:2:0
Bit depth : 8 bits
Scan type : Progressive
Bits/(Pixel*Frame) : 0.323
Stream size : 16.2 GiB (87%)
Title : Transformers The Last Knight (2017) 1080p
Writing library : x264 core 148 r2665kMod a01e339
Default : Yes
Forced : No
Audio #1
ID : 2
Format : AC-3
Format/Info : Audio Coding 3
Mode extension : CM (complete main)
Format settings, Endianness : Big
Codec ID : A_AC3
Duration : 2 h 34 min
Bit rate mode : Constant
Bit rate : 640 kb/s
Channel(s) : 6 channels
Channel positions : Front: L C R, Side: L R, LFE
Sampling rate : 48.0 kHz
Frame rate : 31.250 FPS (1536 spf)
Bit depth : 16 bits
Compression mode : Lossy
Stream size : 708 MiB (4%)
Title : Latin-AC 3-(5.1) BluRay
Language : Spanish
Default : Yes
Forced : No
Audio #2
ID : 3
Format : DTS
Format/Info : Digital Theater Systems
Mode : 16
Format settings, Endianness : Big
Codec ID : A_DTS
Duration : 2 h 34 min
Bit rate mode : Constant
Bit rate : 1 509 kb/s
Channel(s) : 6 channels
Channel positions : Front: L C R, Side: L R, LFE
Sampling rate : 48.0 kHz
Frame rate : 93.750 FPS (512 spf)
Bit depth : 24 bits
Compression mode : Lossy
Stream size : 1.63 GiB (9%)
Title : DTS-(5.1) BluRay
Language : English
Default : No
Forced : No
Text #1
ID : 4
Format : UTF-8
Codec ID : S_TEXT/UTF8
Codec ID/Info : UTF-8 Plain Text
Duration : 2 h 3 min
Bit rate : 0 b/s
Count of elements : 23
Stream size : 534 Bytes (0%)
Title : Forz
Language : Spanish
Default : Yes
Forced : No
Text #2
ID : 5
Format : UTF-8
Codec ID : S_TEXT/UTF8
Codec ID/Info : UTF-8 Plain Text
Duration : 2 h 25 min
Bit rate : 61 b/s
Count of elements : 2288
Stream size : 65.4 KiB (0%)
Language : Spanish
Default : No
Forced : No
Text #3
ID : 6
Format : UTF-8
Codec ID : S_TEXT/UTF8
Codec ID/Info : UTF-8 Plain Text
Duration : 2 h 24 min
Bit rate : 66 b/s
Count of elements : 2276
Stream size : 70.8 KiB (0%)
Language : English
Default : No
Forced : No









Buy Premium Account To Get High Speed Download
http://lupaste.com/?v=24346

0 Comentarios


Cargando comentarios espera un momento...
No tienes permisos para comentar.

Para poder comentar necesitas estar Registrado. O.. ya tienes usuario? Logueate!
Ir al cielo