Posteado por:
campitos
New Full User



The Jungle Book (2016)3D H-SBS 1080p(Ing-Lat) [MULTI]




Titulo original: The Jungle Book
Ano: 2016
Duracion: 105 min.
Pais: Estados Unidos
Director: Jon Favreau
Reparto: Neel Sethi, Bill Murray, Ben Kingsley, Idris Elba, Lupita Nyongo, Scarlett Johansson, Giancarlo Esposito, Christopher Walken, Garry Shandling
Productora: Walt Disney Pictures / Fairview Entertainment / Moving Picture Company (MPC)
Genero: Aventuras. Fantastico. Animacion | Cine familiar. Naturaleza. Animales. 3-D. Remake
Sinopsis: Mowgli (Neel Sethi), un nino criado en la selva por una manada de lobos, emprende un fascinante viaje de autodescubrimiento cuando se ve obligado a abandonar el unico hogar que ha conocido en toda su vida. Nueva adaptacion de la novela de Rudyard Kipling.
http://www.imdb.com/title/tt3040964/?ref_=nv_sr_1
Trailer
https://youtu.be/UuyWDmFnaLQ


Cita:


General
Format : Matroska
Format version : Version 4 / Version 2
File size : 15.9 GiB
Duration : 1h 45mn
Overall bit rate : 21.5 Mbps
Movie name : The Jungle Book (2016) 3D H-SBS 1080p
Encoded date : UTC 2016-08-23 16:55:44
Writing application : mkvmerge v8.3.0 (Over the Horizon) 64bit
Writing library : libebml v1.3.1 + libmatroska v1.4.2
Video
ID : 1
Format : AVC
Format/Info : Advanced Video Codec
Format profile : High@L4.1
Format settings, CABAC : Yes
Format settings, ReFrames : 4 frames
Codec ID : V_MPEG4/ISO/AVC
Duration : 1h 45mn
Bit rate : 18.7 Mbps
Width : 1 920 pixels
Height : 1 080 pixels
Display aspect ratio : 16:9
Frame rate mode : Constant
Frame rate : 23.976 fps
Color space : YUV
Chroma subsampling : 4:2:0
Bit depth : 8 bits
Scan type : Progressive
Bits/(Pixel*Frame) : 0.376
Stream size : 13.5 GiB (85%)
Title : The Jungle Book (2016) 3D H-SBS 1080p
Language : English
Default : Yes
Forced : No
Audio #1
ID : 2
Format : AC-3
Format/Info : Audio Coding 3
Mode extension : CM (complete main)
Format settings, Endianness : Big
Codec ID : A_AC3
Duration : 1h 45mn
Bit rate mode : Constant
Bit rate : 640 Kbps
Channel(s) : 6 channels
Channel positions : Front: L C R, Side: L R, LFE
Sampling rate : 48.0 KHz
Bit depth : 16 bits
Compression mode : Lossy
Stream size : 485 MiB (3%)
Title : AC3 5.1 Bluray
Language : Spanish
Default : Yes
Forced : No
Audio #2
ID : 3
Format : DTS
Format/Info : Digital Theater Systems
Mode : 16
Format settings, Endianness : Big
Codec ID : A_DTS
Duration : 1h 45mn
Bit rate mode : Constant
Bit rate : 1 509 Kbps
Channel(s) : 6 channels
Channel positions : Front: L C R, Side: L R, LFE
Sampling rate : 48.0 KHz
Bit depth : 24 bits
Compression mode : Lossy
Stream size : 1.12 GiB (7%)
Title : DTS
Language : English
Default : No
Forced : No
Audio #3
ID : 4
Format : AC-3
Format/Info : Audio Coding 3
Mode extension : CM (complete main)
Format settings, Endianness : Big
Codec ID : A_AC3
Duration : 1h 45mn
Bit rate mode : Constant
Bit rate : 640 Kbps
Channel(s) : 6 channels
Channel positions : Front: L C R, Side: L R, LFE
Sampling rate : 48.0 KHz
Bit depth : 16 bits
Compression mode : Lossy
Stream size : 485 MiB (3%)
Title : AC3 5.1
Language : English
Default : No
Forced : No
Text
ID : 5
Format : UTF-8
Codec ID : S_TEXT/UTF8
Codec ID/Info : UTF-8 Plain Text
Title : Subtit_Complet
Language : Spanish
Default : No
Forced : No









Buy Premium Account To Get High Speed Download
http://lupaste.com/?v=23522

0 Comentarios


Cargando comentarios espera un momento...
No tienes permisos para comentar.

Para poder comentar necesitas estar Registrado. O.. ya tienes usuario? Logueate!
Ir al cielo