Posteado por:
campitos
New Full User



The Hobbit An Unexpected Journey (2012)3D H-SBS 1080p(Ing-La




TITULO ORIGINAL: The Hobbit: An Unexpected Journey
ANO: 2012
DURACION: 169 min.
PAIS: USA
DIRECTOR: Peter Jackson
GUION: Fran Walsh, Philippa Boyens, Peter Jackson, Guillermo del Toro (Novela: J.R.R. Tolkien)
REPARTO: Martin Freeman, Ian McKellen, Richard Armitage, James Nesbitt, Aidan Turner, Graham McTavish, Jed Brophy, Stephen Hunter, Ken Stott, John Callen, Adam Brown, Dean OGorman, William Kircher, Peter Hambleton, Mark Hadlow, Hugo Weaving, Andy Serkis, Sylvester McCoy, Cate Blanchett, Christopher Lee, Elijah Wood, Ian Holm, Barry Humphries, Jeffrey Thomas, Lee Pace, Conan Stevens, Bret McKenzie, Manu Bennett
PRODUCTORA: Co-produccion USA-Nueva Zelanda; Warner Bros. Pictures / MGM / New Line Cinema / WingNut Films
GENERO: Fantastico. Aventuras. Accion | Precuela. Espada y brujeria. Dragones. 3-D
http://www.imdb.com/title/tt0903624/
PREMIOS: 2012: Oscars: Nominada a Maquillaje, Direccion Artistica y Efectos Visuales
2012: Premios BAFTA: Nominada a Sonido, Efectos Visuales y Maquillaje/Peluqueria
2012: Critics Choice Awards: 4 nominaciones tecnicas
Sinopsis: Precuela de la trilogia "El Senor de los Anillos", obra de J.R.R. Tolkien. En compania del mago Gandalf y de trece enanos, el hobbit Bilbo Bolson emprende un viaje a traves del pais de los elfos y los bosques de los trolls, desde las mazmorras de los orcos hasta la Montana Solitaria, donde el dragon Smaug esconde el tesoro de los Enanos. Finalmente, en las profundidades de la Tierra, encuentra el Anillo Unico, hipnotico objeto que sera posteriormente causa de tantas sangrientas batallas en la Tierra Media.
Trailer
https://www.youtube.com/watch?v=SDnYMbYB-nU&feature=youtu.be


Cita:


General
Format : Matroska
Format version : Version 3 / Version 2
File size : 17.9 GiB
Duration : 2h 49mn
Overall bit rate : 15.1 Mbps
Encoded date : UTC 2013-03-04 19:31:54
Writing application : mkvmerge v5.7.0 (The Whirlwind) built on Jul 8 2012 20:08:51
Writing library : libebml v1.2.3 + libmatroska v1.3.0
Video
ID : 1
Format : AVC
Format/Info : Advanced Video Codec
Format profile : High@L4.1
MultiView_Count : 2
MultiView_Layout : Side by Side (left eye first)
Format settings, CABAC : Yes
Format settings, ReFrames : 4 frames
Codec ID : V_MPEG4/ISO/AVC
Duration : 2h 49mn
Bit rate : 12.2 Mbps
Width : 1 920 pixels
Height : 1 080 pixels
Display aspect ratio : 16:9
Frame rate mode : Constant
Frame rate : 23.976 fps
Color space : YUV
Chroma subsampling : 4:2:0
Bit depth : 8 bits
Scan type : Progressive
Bits/(Pixel*Frame) : 0.245
Stream size : 14.4 GiB (81%)
Writing library : x264 core 130 r2273 b3065e6
Language : English
Default : Yes
Forced : No
Audio #1
ID : 2
Format : AC-3
Format/Info : Audio Coding 3
Mode extension : CM (complete main)
Format settings, Endianness : Big
Codec ID : A_AC3
Duration : 2h 49mn
Bit rate mode : Constant
Bit rate : 448 Kbps
Channel(s) : 6 channels
Channel positions : Front: L C R, Side: L R, LFE
Sampling rate : 48.0 KHz
Bit depth : 16 bits
Compression mode : Lossy
Stream size : 544 MiB (3%)
Title : AC3 5.1
Language : Spanish
Default : Yes
Forced : No
Audio #2
ID : 3
Format : AC-3
Format/Info : Audio Coding 3
Mode extension : CM (complete main)
Format settings, Endianness : Big
Codec ID : A_AC3
Duration : 2h 49mn
Bit rate mode : Constant
Bit rate : 640 Kbps
Channel(s) : 6 channels
Channel positions : Front: L C R, Side: L R, LFE
Sampling rate : 48.0 KHz
Bit depth : 16 bits
Compression mode : Lossy
Stream size : 777 MiB (4%)
Title : AC3 5.1
Language : English
Default : No
Forced : No
Audio #3
ID : 4
Format : DTS
Format/Info : Digital Theater Systems
Mode : 16
Format settings, Endianness : Big
Codec ID : A_DTS
Duration : 2h 49mn
Bit rate mode : Constant
Bit rate : 1 509 Kbps
Channel(s) : 6 channels
Channel positions : Front: L C R, Side: L R, LFE
Sampling rate : 48.0 KHz
Bit depth : 24 bits
Compression mode : Lossy
Stream size : 1.79 GiB (10%)
Title : DTS 5.1
Language : English
Default : No
Forced : No
Text #1
ID : 5
Format : UTF-8
Codec ID : S_TEXT/UTF8
Codec ID/Info : UTF-8 Plain Text
Title : Forzados
Language : Spanish
Default : Yes
Forced : No
Text #2
ID : 6
Format : UTF-8
Codec ID : S_TEXT/UTF8
Codec ID/Info : UTF-8 Plain Text
Language : Spanish
Default : No
Forced : No









Buy Premium Account To Get High Speed Download
http://lupaste.com/?v=22678

0 Comentarios


Cargando comentarios espera un momento...
No tienes permisos para comentar.

Para poder comentar necesitas estar Registrado. O.. ya tienes usuario? Logueate!
Ir al cielo