Posteado por:
campitos
New Full User



The Amazing Spider Man (2012)3D H-SBS 1080p(Ing-Lat) [MULTI]




TITULO ORIGINAL: The Amazing Spider-Man (The Amazing Spiderman)
ANO: 2012
DURACION: 136 min.
PAIS: USA
DIRECTOR: Marc Webb
GUION: Steve Kloves, James Vanderbilt, Alvin Sargent (Personajes: Stan Lee, Steve Ditko)
REPARTO: Andrew Garfield, Emma Stone, Rhys Ifans, Sally Field, Martin Sheen, Denis Leary, Campbell Scott, Embeth Davidtz, Irrfan Khan, C. Thomas Howell, Stan Lee
PRODUCTORA: Sony Pictures / Columbia Pictures / Marvel Studios
GENERO: Fantastico. Accion. Romance | Adolescencia. Superheroes. Comic. Marvel Comics. 3-D
Sinopsis: Como la mayoria de los adolescentes de su edad, Peter esta intentando descubrir quien es y como ha llegado a ser lo que es. En su viaje para atar los cabos de su pasado descubre un secreto que guardaba su padre, un secreto que finalmente dara forma a su destino como Spiderman.
http://www.imdb.com/title/tt0948470/
Trailer
https://youtu.be/9Zye2I3gcT4


Cita:


General
Format : Matroska
Format version : Version 2
File size : 14.6 GiB
Duration : 2h 16mn
Overall bit rate : 15.4 Mbps
Encoded date : UTC 2012-10-27 02:28:51
Writing application : mkvmerge v5.7.0 (The Whirlwind) built on Jul 8 2012 20:08:51
Writing library : libebml v1.2.3 + libmatroska v1.3.0
Video
ID : 1
Format : AVC
Format/Info : Advanced Video Codec
Format profile : High@L4.1
Format settings, CABAC : Yes
Format settings, ReFrames : 2 frames
Codec ID : V_MPEG4/ISO/AVC
Duration : 2h 16mn
Bit rate : 12.5 Mbps
Width : 1 920 pixels
Height : 1 080 pixels
Display aspect ratio : 16:9
Frame rate : 23.976 fps
Color space : YUV
Chroma subsampling : 4:2:0
Bit depth : 8 bits
Scan type : Progressive
Bits/(Pixel*Frame) : 0.252
Stream size : 11.9 GiB (82%)
Writing library : x264 core
Language : English
Default : Yes
Forced : No
Color primaries : BT.709-5, BT.1361, IEC 61966-2-4, SMPTE RP177
Transfer characteristics : BT.709-5, BT.1361
Matrix coefficients : BT.709-5, BT.1361, IEC 61966-2-4 709, SMPTE RP177
Audio #1
ID : 2
Format : AC-3
Format/Info : Audio Coding 3
Mode extension : CM (complete main)
Codec ID : A_AC3
Duration : 2h 16mn
Bit rate mode : Constant
Bit rate : 384 Kbps
Channel(s) : 6 channels
Channel positions : Front: L C R, Side: L R, LFE
Sampling rate : 48.0 KHz
Bit depth : 16 bits
Compression mode : Lossy
Delay relative to video : 24ms
Stream size : 374 MiB (2%)
Title : AC3 5.1
Language : Spanish
Default : Yes
Forced : No
Audio #2
ID : 3
Format : AC-3
Format/Info : Audio Coding 3
Mode extension : CM (complete main)
Codec ID : A_AC3
Duration : 2h 16mn
Bit rate mode : Constant
Bit rate : 640 Kbps
Channel(s) : 6 channels
Channel positions : Front: L C R, Side: L R, LFE
Sampling rate : 48.0 KHz
Bit depth : 16 bits
Compression mode : Lossy
Stream size : 624 MiB (4%)
Title : AC3 5.1
Language : English
Default : No
Forced : No
Audio #3
ID : 4
Format : DTS
Format/Info : Digital Theater Systems
Codec ID : A_DTS
Duration : 2h 16mn
Bit rate mode : Constant
Bit rate : 1 510 Kbps
Channel(s) : 6 channels
Channel positions : Front: L C R, Side: L R, LFE
Sampling rate : 48.0 KHz
Bit depth : 24 bits
Compression mode : Lossy
Stream size : 1.44 GiB (10%)
Title : DTS 5.1
Language : English
Default : No
Forced : No
Text #1
ID : 5
Format : UTF-8
Codec ID : S_TEXT/UTF8
Codec ID/Info : UTF-8 Plain Text
Language : Spanish
Default : No
Forced : No
Text #2
ID : 6
Format : UTF-8
Codec ID : S_TEXT/UTF8
Codec ID/Info : UTF-8 Plain Text
Language : English
Default : No
Forced : No








Buy Premium Account To Get High Speed Download
http://lupaste.com/?v=23453

0 Comentarios


Cargando comentarios espera un momento...
No tienes permisos para comentar.

Para poder comentar necesitas estar Registrado. O.. ya tienes usuario? Logueate!
Ir al cielo