Posteado por:
campitos
New Full User



Texas Chainsaw (2013)3D H-SBS 1080p(Ing-Lat) [MULTI]




TITULO ORIGINAL: Texas Chainsaw 3D (Leatherface 3D)
ANO: 2013
DURACION: 92 min.
PAIS: USA
DIRECTOR: John Luessenhop
GUION: Adam Marcus, Debra Sullivan, Kirsten Elms, Stephen Susco (Personajes: Tobe Hooper, Kim Henkel)
REPARTO: Alexandra Daddario, Trey Songz, Tania Raymonde, Keram Malicki-Sanchez, Shaun Sipos, Thom Barry, Paul Rae, Bill Moseley, Dan Yeager, Richard Riehle, John Dugan, Gunnar Hansen, Marilyn Burns, Tobe Hooper
PRODUCTORA: Nu Image / Millennium
GENERO: Terror | Secuela. Slasher. 3-D
SINOPSIS: Secuela del film de Tobe Hooper (1974). El pueblo de Newt (Texas) se vengo de la familia Sawyer por haber ocultado los asesinatos cometidos por Jeb Sawyer, el maniaco de la motosierra, tambien conocido como "Cara de cuero". Cuando la gente del pueblo, dirigida por Burt Hartman, quemo su granja, se dio por supuesto que toda la familia habia muerto, pero el bebe de los Sawyer sobrevivio. Gavin y Arlene, dos de los vigilantes pueblerinos, se la llevaron en secreto y la criaron como si fuera su hija con el nombre de Heather. A los veinte anos, cuando descubrio que habia sido adoptada, un abogado la localizo para comunicarle que su abuela la habia nombrado heredera de sus bienes.

http://www.imdb.com/title/tt1572315/
Trailer
https://www.youtube.com/watch?v=GiKNuKA8aXk
[/align]

Cita:


General
Format : Matroska
Format version : Version 2
File size : 8.79 GiB
Duration : 1h 31mn
Overall bit rate : 13.7 Mbps
Encoded date : UTC 2013-05-02 10:08:09
Writing application : mkvmerge v5.7.0 (The Whirlwind) built on Jul 8 2012 20:08:51
Writing library : libebml v1.2.3 + libmatroska v1.3.0
Attachment : Yes
Video
ID : 1
Format : AVC
Format/Info : Advanced Video Codec
Format profile : High@L4.1
Format settings, CABAC : Yes
Format settings, ReFrames : 2 frames
Codec ID : V_MPEG4/ISO/AVC
Duration : 1h 31mn
Bit rate : 10.6 Mbps
Width : 1 920 pixels
Height : 1 080 pixels
Display aspect ratio : 16:9
Frame rate mode : Constant
Frame rate : 23.976 fps
Color space : YUV
Chroma subsampling : 4:2:0
Bit depth : 8 bits
Scan type : Progressive
Bits/(Pixel*Frame) : 0.214
Stream size : 6.82 GiB (78%)
Writing library : x264 core
Language : English
Default : Yes
Forced : No
Color primaries : BT.709
Transfer characteristics : BT.709
Matrix coefficients : BT.709
Audio #1
ID : 2
Format : AC-3
Format/Info : Audio Coding 3
Mode extension : CM (complete main)
Format settings, Endianness : Big
Codec ID : A_AC3
Duration : 1h 31mn
Bit rate mode : Constant
Bit rate : 640 Kbps
Channel(s) : 6 channels
Channel positions : Front: L C R, Side: L R, LFE
Sampling rate : 48.0 KHz
Bit depth : 16 bits
Compression mode : Lossy
Stream size : 421 MiB (5%)
Title : AC3 5.1
Language : Spanish
Default : Yes
Forced : No
Audio #2
ID : 3
Format : AC-3
Format/Info : Audio Coding 3
Mode extension : CM (complete main)
Format settings, Endianness : Big
Codec ID : A_AC3
Duration : 1h 31mn
Bit rate mode : Constant
Bit rate : 640 Kbps
Channel(s) : 6 channels
Channel positions : Front: L C R, Side: L R, LFE
Sampling rate : 48.0 KHz
Bit depth : 16 bits
Compression mode : Lossy
Stream size : 421 MiB (5%)
Title : AC3 5.1
Language : English
Default : No
Forced : No
Audio #3
ID : 4
Format : DTS
Format/Info : Digital Theater Systems
Mode : 16
Format settings, Endianness : Big
Codec ID : A_DTS
Duration : 1h 31mn
Bit rate mode : Constant
Bit rate : 1 509 Kbps
Channel(s) : 6 channels
Channel positions : Front: L C R, Side: L R, LFE
Sampling rate : 48.0 KHz
Bit depth : 24 bits
Compression mode : Lossy
Stream size : 993 MiB (11%)
Title : DTS 5.1
Language : English
Default : No
Forced : No
Text
ID : 5
Format : UTF-8
Codec ID : S_TEXT/UTF8
Codec ID/Info : UTF-8 Plain Text
Language : Spanish
Default : No
Forced : No








Buy Premium Account To Get High Speed Download
http://lupaste.com/?v=23366

0 Comentarios


Cargando comentarios espera un momento...
No tienes permisos para comentar.

Para poder comentar necesitas estar Registrado. O.. ya tienes usuario? Logueate!
Ir al cielo