Posteado por:
campitos
New Full User



The Artist (2011) FullHD 1080p (Ing-Lat) [MULTI]




Título original: The Artist
Año: 2011
Duración: 100 min.
País: Francia Francia
Director: Michel Hazanavicius
Guion: Michel Hazanavicius
Música: Ludovic Bource
Fotografía: Guillaume Schiffman (B&W)
Reparto: Jean Dujardin, Bérénice Bejo, James Cromwell, John Goodman, Penelope Ann Miller, Missi Pyle, Malcolm McDowell, Joel Murray, Ed Lauter, Beth Grant, Bitsie Tulloch, Ken Davitian, Bill Fagerbakke, Katie Nisa
Productora: Wildbunch / La Petite Reine / Studio 37 / La Classe Américaine / JD Prod / France3 Cinéma / Jouror Production / uFilms
Género: Comedia. Drama. Romance | Melodrama. Cine dentro del cine. Años 20. Años 30. Gran Depresión. Cine mudo
Sinopsis:Hollywood, 1927. George Valentin es una gran estrella del cine mudo a quien la vida le sonríe. Pero con la llegada del cine sonoro, su carrera corre peligro de quedar sepultada en el olvido. Por su parte, la joven actriz Peppy Miller, que empezó como extra al lado de Valentin, se convierte en una estrella del cine sonoro.
Premios
2011: 5 Oscars: Mejor película, director, actor (Dujardin), BSO, vestuario. 10 nom.
2011: 3 Globos de Oro: Mejor película comedia/musical, actor (Dujardin) y BSO. 6 nom.
2011: 7 premios BAFTA, incl. mejor película, director, guión original. 12 nom.
2011: 6 Premios Cesar, incluyendo mejor película y director. 10 nominaciones
2011: Festival de Cannes: Mejor actor (Jean Dujardin)
2011: National Board of Review (NBR): Top 10 - Mejores películas del año
2011: Premios Independent Spirit: Mejor película, director, actor y fotografía. 5 nom.
2011: Critics Choice Awards: 4 premios, incl. mejor película. 11 nominaciones
2011: Festival de San Sebastián: Premio del público
2011: Premios del Cine Europeo: Mejor BSO. 4 nom., incluyendo mejor película
2011: Premios Goya: Mejor película europea
2011: Satellite Awards: Mejor dirección artística. 5 nom., incluyendo mejor película
2011: Producers Guild of America: Mejor película
2011: Premios de la Crítica de Washington (WAFCA): Mejor película
2011: Sindicato de Productores (PGA): Mejor película
2011: Directors Guild of America (DGA): Mejor director
2011: Sindicato de Actores (SAG): Mejor Actor (Dujardin). 3 nominaciones
2011: Círculo de críticos de Nueva York: Mejor película y director. 3 nominaciones
2011: Festival de Hampton: Mejor película (Premio del público)
2011: Festival de Sevilla: Premio del público
2011: Nominada Premios David di Donatello: Mejor película de la Unión Europea
2011: Asociación de Críticos de Chicago: Mejor Guión. 5 nominaciones
2012: Premios del Cine Europeo: Nominada al Premio del público (mejor película)
http://www.imdb.com/title/tt1655442/
Trailer
https://youtu.be/LOfyI3aW66k


Cita:


General
Complete name :The Artist (2011)
Format : Matroska
Format version : Version 4 / Version 2
File size : 8.56 GiB
Duration : 1 h 40 min
Overall bit rate : 12.2 Mb/s
Encoded date : UTC 2017-09-13 21:21:58
Writing application : mkvmerge v9.9.0 ('Pick Up') 64bit
Writing library : libebml v1.3.4 + libmatroska v1.4.5
Video
ID : 1
Format : AVC
Format/Info : Advanced Video Codec
Format profile : High@L4.1
Format settings, CABAC : Yes
Format settings, ReFrames : 5 frames
Codec ID : V_MPEG4/ISO/AVC
Duration : 1 h 40 min
Bit rate : 11.5 Mb/s
Width : 1 434 pixels
Height : 1 080 pixels
Display aspect ratio : 4:3
Frame rate mode : Constant
Frame rate : 23.976 (24000/1001) FPS
Color space : YUV
Chroma subsampling : 4:2:0
Bit depth : 8 bits
Scan type : Progressive
Bits/(Pixel*Frame) : 0.311
Stream size : 8.11 GiB (95%)
Writing library : x264 core 125 r2200 999b753
Language : English
Default : Yes
Forced : No
Audio
ID : 2
Format : AC-3
Format/Info : Audio Coding 3
Mode extension : CM (complete main)
Format settings, Endianness : Big
Codec ID : A_AC3
Duration : 1 h 40 min
Bit rate mode : Constant
Bit rate : 640 kb/s
Channel(s) : 6 channels
Channel positions : Front: L C R, Side: L R, LFE
Sampling rate : 48.0 kHz
Frame rate : 31.250 FPS (1536 spf)
Bit depth : 16 bits
Compression mode : Lossy
Stream size : 461 MiB (5%)
Title :BluRay
Language : English
Default : Yes
Forced : No
Text
ID : 3
Format : UTF-8
Codec ID : S_TEXT/UTF8
Codec ID/Info : UTF-8 Plain Text
Duration : 1 h 35 min
Bit rate : 7 b/s
Count of elements : 147
Stream size : 5.43 KiB (0%)
Title : Latino Forz
Language : Spanish
Default : Yes
Forced : No









Buy Premium Account To Get High Speed Download
http://lupaste.com/?v=25126

0 Comentarios


Cargando comentarios espera un momento...
No tienes permisos para comentar.

Para poder comentar necesitas estar Registrado. O.. ya tienes usuario? Logueate!
Ir al cielo