Posteado por:
campitos
New Full User



SAW (2004) FullHD 1080p (Ing-Lat) [MULTI]




Título original: SAW
Año: 2004
Duración: 100 min.
País: Estados Unidos
Director: James Wan
Guión: Leigh Whannell (Historia: James Wan, Leigh Whannell)
Música: Charlie Clouser
Fotografía: David Armstrong
Reparto: Cary Elwes, Leigh Whannell, Danny Glover, Monica Potter, Dina Meyer, Tobin Bell, Shawnee Smith, Ken Leung, Alexandra Bokyun Chun, Michael Emerson, Makenzie Vegas, Mike Butters, Paul Gutrecht, Benito Martinez
Productora: Lions Gate Films
Género: Terror. Thriller. Intriga | Gore. Película de culto. Asesinos en serie. Secuestros / Desapariciones.
Sinopsis: Adam se despierta encadenado a un tubo oxidado dentro de una decrépita cámara subterránea. A su lado, hay otra persona encadenada, el Dr. Lawrence Gordon. Entre ellos hay un hombre muerto. Ninguno de los dos sabe por qué está allí, pero tienen un casette con instrucciones para que el Dr. Gordon mate a Adam en un plazo de ocho horas. Recordando una investigación de asesinato llevada a cabo por un detective llamado Tapp, Gordon descubre que él y Adam son victimas de un psicópata conocido como Jigsaw. Sólo disponen de unas horas para desenredar el complicado rompecabezas en el que están inmersos.
http://www.imdb.com/title/tt0387564
Trailer
https://youtu.be/S-1QgOMQ-ls


Cita:


Format : Matroska
Format version : Version 4 / Version 2
File size : 12.9 GiB
Duration : 1 h 42 min
Overall bit rate : 17.9 Mb/s
Encoded date : UTC 2017-09-07 00:02:15
Writing application : mkvmerge v15.0.0 ('Duel with the Devil') 64-bit
Writing library : libebml v1.3.5 + libmatroska v1.4.5
Video
ID : 1
Format : AVC
Format/Info : Advanced Video Codec
Format profile : High@L4.1
Format settings, CABAC : Yes
Format settings, ReFrames : 4 frames
Codec ID : V_MPEG4/ISO/AVC
Duration : 1 h 42 min
Bit rate : 16.1 Mb/s
Width : 1 920 pixels
Height : 1 080 pixels
Display aspect ratio : 16:9
Frame rate mode : Constant
Frame rate : 23.976 (24000/1001) FPS
Color space : YUV
Chroma subsampling : 4:2:0
Bit depth : 8 bits
Scan type : Progressive
Bits/(Pixel*Frame) : 0.324
Stream size : 11.6 GiB (90%)
Title : SAW (2004) 1080p
Writing library : x264 core 146 r2538 121396c
Language : English
Default : Yes
Forced : No
Color range : Limited
Color primaries : BT.709
Transfer characteristics : BT.709
Matrix coefficients : BT.709
Audio #1
ID : 2
Format : AC-3
Format/Info : Audio Coding 3
Mode extension : CM (complete main)
Format settings, Endianness : Big
Codec ID : A_AC3
Duration : 1 h 42 min
Bit rate mode : Constant
Bit rate : 320 kb/s
Channel(s) : 2 channels
Channel positions : Front: L R
Sampling rate : 48.0 kHz
Frame rate : 31.250 FPS (1536 spf)
Bit depth : 16 bits
Compression mode : Lossy
Stream size : 235 MiB (2%)
Title : Latin-AC 3-(2.0) DVD
Language : Spanish
Default : Yes
Forced : Yes
Audio #2
ID : 3
Format : DTS
Format/Info : Digital Theater Systems
Format profile : ES Discrete / Core
Mode : 16
Format settings, Endianness : Big
Codec ID : A_DTS
Duration : 1 h 42 min
Bit rate mode : Constant
Bit rate : 1 509 kb/s
Channel(s) : 7 channels / 6 channels
Channel positions : Front: L C R, Side: L R, Back: C, LFE / Front: L C R, Side: L R, LFE
Sampling rate : 48.0 kHz
Frame rate : 93.750 FPS (512 spf)
Bit depth : 24 bits
Compression mode : Lossy
Stream size : 1.08 GiB (8%)
Title : DTS-(5.1) BluRay
Language : English
Default : No
Forced : No
Text #1
ID : 4
Format : UTF-8
Codec ID : S_TEXT/UTF8
Codec ID/Info : UTF-8 Plain Text
Duration : 10 s 100 ms
Bit rate : 30 b/s
Count of elements : 1
Stream size : 39.0 Bytes (0%)
Title : Forz
Language : Spanish
Default : Yes
Forced : No
Text #2
ID : 5
Format : UTF-8
Codec ID : S_TEXT/UTF8
Codec ID/Info : UTF-8 Plain Text
Duration : 1 h 38 min
Bit rate : 41 b/s
Count of elements : 800
Stream size : 29.7 KiB (0%)
Title : Latin
Language : Spanish
Default : No
Forced : No
Text #3
ID : 6
Format : UTF-8
Codec ID : S_TEXT/UTF8
Codec ID/Info : UTF-8 Plain Text
Duration : 1 h 38 min
Bit rate : 39 b/s
Count of elements : 790
Stream size : 28.8 KiB (0%)
Language : English
Default : No
Forced : No







Buy Premium Account To Get High Speed Download
http://lupaste.com/?v=24820

0 Comentarios


Cargando comentarios espera un momento...
No tienes permisos para comentar.

Para poder comentar necesitas estar Registrado. O.. ya tienes usuario? Logueate!
Ir al cielo