Posteado por:
campitos
New Full User



Gridiron Gang (2006) FullHD 1080p (Ing-Lat) [MULTI]




Titulo original: Gridiron Gang Full HD1080p
Otro titulo: La Vida En Juego Full HD1080p
Ano: 2006
Duracion: 120 min.
Pais: Estados Unidos
Director: Phil Joanou
Guion: Jeff Maguire (Remake: Jac Flanders)
Musica: Trevor Rabin
Fotografia: Jeff Cutter
Reparto: Dwayne "The Rock" Johnson, Xzibit, Kevin Dunn, Leon Rippy, L. Scott Caldwell, Jade Yorker, David V. Thomas, Setu Taase
Productora: Columbia Pictures
Genero: Drama | Deporte. Futbol americano. Remake
Sinopsis: Unos jovenes recluidos en un centro de detencion para menores, bajo el liderazgo de su consejero, intentan ganar autoestima jugando al futbol americano.
http://www.imdb.com/title/tt0421206
Trailer
https://youtu.be/Z85BUSMQO84


Cita:


General
Format : Matroska
Format version : Version 4 / Version 2
File size : 8.01 GiB
Duration : 2 h 5 min
Overall bit rate : 9 145 kb/s
Movie name : Gridiron Gang (2006) 1080p
Encoded date : UTC 2017-07-06 18:32:59
Writing application : mkvmerge v9.9.0 ('Pick Up') 64bit
Writing library : libebml v1.3.4 + libmatroska v1.4.5
Video
ID : 1
Format : AVC
Format/Info : Advanced Video Codec
Format profile : High@L4.1
Format settings, CABAC : Yes
Format settings, ReFrames : 4 frames
Codec ID : V_MPEG4/ISO/AVC
Duration : 2 h 5 min
Bit rate : 7 446 kb/s
Width : 1 920 pixels
Height : 800 pixels
Display aspect ratio : 2.40:1
Frame rate mode : Constant
Frame rate : 23.976 (24000/1001) FPS
Color space : YUV
Chroma subsampling : 4:2:0
Bit depth : 8 bits
Scan type : Progressive
Bits/(Pixel*Frame) : 0.202
Stream size : 6.52 GiB (81%)
Title : Gridiron Gang (2006) 1080p
Language : English
Default : Yes
Forced : No
Audio #1
ID : 2
Format : E-AC-3
Format/Info : Enhanced Audio Coding 3
Format settings, Endianness : Big
Codec ID : A_EAC3
Duration : 2 h 5 min
Bit rate mode : Constant
Bit rate : 192 kb/s
Channel(s) : 6 channels
Channel positions : Front: L C R, Side: L R, LFE
Sampling rate : 48.0 kHz
Frame rate : 187.500 FPS (256 spf)
Compression mode : Lossy
Delay relative to video : 1 s 200 ms
Stream size : 172 MiB (2%)
Title : E-AC3 5.1 Captura
Language : Spanish
Default : Yes
Forced : No
Audio #2
ID : 3
Format : DTS
Format/Info : Digital Theater Systems
Mode : 16
Format settings, Endianness : Big
Codec ID : A_DTS
Duration : 2 h 5 min
Bit rate mode : Constant
Bit rate : 1 510 kb/s
Channel(s) : 6 channels
Channel positions : Front: L C R, Side: L R, LFE
Sampling rate : 48.0 kHz
Frame rate : 93.750 FPS (512 spf)
Bit depth : 24 bits
Compression mode : Lossy
Stream size : 1.32 GiB (16%)
Title : DTS
Language : English
Default : No
Forced : No
Text
ID : 4
Format : UTF-8
Codec ID : S_TEXT/UTF8
Codec ID/Info : UTF-8 Plain Text
Duration : 2 h 1 min
Bit rate : 53 b/s
Count of elements : 1548
Stream size : 48.0 KiB (0%)
Title : Subtit_Compl
Language : Spanish
Default : No
Forced : No








Buy Premium Account To Get High Speed Download
http://lupaste.com/?v=25106

0 Comentarios


Cargando comentarios espera un momento...
No tienes permisos para comentar.

Para poder comentar necesitas estar Registrado. O.. ya tienes usuario? Logueate!
Ir al cielo