Posteado por:
campitos
New Full User



Gold (2016) FullHD 1080p (Ing-Lat) [MULTI]




Título original: Gold
Año: 2016
Duración: 121 min.
País: United States
Director: Stephen Gaghan
Guion: Patrick Massett, John Zinman
Productora: Black Bear Pictures / Hwy61 / Living Films
Género: Drama
Sinopsis: Kenny Wells es un fracasado hombre de negocios reconvertido en un moderno explorador, desesperado por tener un golpe de suerte. En un último esfuerzo, Wells se asocia con un geólogo, con la misma poca fortuna, para ejecutar un plan tan descabellado como grandioso: encontrar oro en las profundidades de la inexplorada jungla de Indonesia.
http://www.imdb.com/title/tt1800302
Trailer
https://youtu.be/a1Fmys2Txtk


Cita:


General
Unique ID : 201503587798546252817762980936128753168 (0x97982DEAD11248629AACE64221FD6E10)
Format : Matroska
Format version : Version 4 / Version 2
File size : 8.96 GiB
Duration : 2 h 0 min
Overall bit rate : 10.7 Mb/s
Encoded date : UTC 2017-09-21 18:54:08
Writing application : mkvmerge v9.9.0 ('Pick Up') 64bit
Writing library : libebml v1.3.4 + libmatroska v1.4.5
Video
ID : 1
Format : AVC
Format/Info : Advanced Video Codec
Format profile : High@L4.1
Format settings, CABAC : Yes
Format settings, ReFrames : 5 frames
Codec ID : V_MPEG4/ISO/AVC
Duration : 2 h 0 min
Bit rate : 8 894 kb/s
Width : 1 920 pixels
Height : 800 pixels
Display aspect ratio : 2.40:1
Frame rate mode : Constant
Frame rate : 23.976 FPS
Color space : YUV
Chroma subsampling : 4:2:0
Bit depth : 8 bits
Scan type : Progressive
Bits/(Pixel*Frame) : 0.242
Stream size : 7.47 GiB (83%)
Writing library : x264 core 148 r2744 b97ae06
Language : English
Default : Yes
Forced : No
Audio #1
ID : 2
Format : AC-3
Format/Info : Audio Coding 3
Mode extension : CM (complete main)
Format settings, Endianness : Big
Codec ID : A_AC3
Duration : 2 h 0 min
Bit rate mode : Constant
Bit rate : 256 kb/s
Channel(s) : 2 channels
Channel positions : Front: L R
Sampling rate : 48.0 kHz
Frame rate : 31.250 FPS (1536 spf)
Bit depth : 16 bits
Compression mode : Lossy
Stream size : 220 MiB (2%)
Title : AC3 2.0 256kbps DVD
Language : Latin
Default : Yes
Forced : No
Audio #2
ID : 3
Format : DTS
Format/Info : Digital Theater Systems
Mode : 16
Format settings, Endianness : Big
Codec ID : A_DTS
Duration : 2 h 0 min
Bit rate mode : Constant
Bit rate : 1 509 kb/s
Channel(s) : 6 channels
Channel positions : Front: L C R, Side: L R, LFE
Sampling rate : 48.0 kHz
Frame rate : 93.750 FPS (512 spf)
Bit depth : 24 bits
Compression mode : Lossy
Stream size : 1.27 GiB (14%)
Title : DTS 5.1 1509kbps Bluray
Language : English
Default : No
Forced : No
Text
ID : 4
Format : UTF-8
Codec ID : S_TEXT/UTF8
Codec ID/Info : UTF-8 Plain Text
Duration : 1 h 52 min
Bit rate : 65 b/s
Count of elements : 1484
Stream size : 54.1 KiB (0%)
Title : Latino
Language : Latin
Default : Yes
Forced : No







Buy Premium Account To Get High Speed Download
http://lupaste.com/?v=24675

0 Comentarios


Cargando comentarios espera un momento...
No tienes permisos para comentar.

Para poder comentar necesitas estar Registrado. O.. ya tienes usuario? Logueate!
Ir al cielo