Posteado por:
campitos
New Full User



Baywatch (2017) FullHD 1080p (Ing-Lat) [MULTI]




Titulo original: Baywatch
Ano: 2017
Duracion: 116 Minutos
Pais: Estados Unidos
Director: Seth Gordon
Reparto: Dwayne "The Rock" Johnson, Zac Efron, Alexandra Daddario, Priyanka Chopra, Kelly Rohrbach, Ilfenesh Hadera, Jon Bass, David Hasselhoff, Charlotte McKinney, Izabel Goulart, Belinda, Pamela Anderson, Yahya Abdul-Mateen II, Oscar Nunez, Hannibal Buress, Amin Joseph, Rob Huebel, Alexis Burns, Tamila Bilalova
Productora: Paramount Pictures / Flynn Picture Company / Fremantle Productions
Genero: Accion. Comedia
Sinopsis: Adaptacion al cine de la serie "Los vigilantes de la playa". Narra la historia del esforzado socorrista Mitch Buchannon (Johnson) y su choque de caracter con un bravucon socorrista novato (Efron). Juntos, descubren una trama delictiva local que amenaza el futuro de la Bahia.
http://www.imdb.com/title/tt1469304
Trailer
https://youtu.be/KjuRIAZogMM


Cita:


General
Format : Matroska
Format version : Version 4 / Version 2
File size : 8.49 GiB
Duration : 2 h 1 min
Overall bit rate : 10.0 Mb/s
Movie name : Baywatch [Unrated] (2017) 1080p
Encoded date : UTC 2017-08-18 23:39:43
Writing application : mkvmerge v9.9.0 ('Pick Up') 64bit
Writing library : libebml v1.3.4 + libmatroska v1.4.5
Video
ID : 1
Format : AVC
Format/Info : Advanced Video Codec
Format profile : High@L4.1
Format settings, CABAC : Yes
Format settings, ReFrames : 5 frames
Codec ID : V_MPEG4/ISO/AVC
Duration : 2 h 1 min
Bit rate : 8 729 kb/s
Width : 1 920 pixels
Height : 808 pixels
Display aspect ratio : 2.40:1
Frame rate mode : Constant
Frame rate : 23.976 (24000/1001) FPS
Color space : YUV
Chroma subsampling : 4:2:0
Bit depth : 8 bits
Scan type : Progressive
Bits/(Pixel*Frame) : 0.235
Stream size : 7.40 GiB (87%)
Title : Baywatch [Unrated] (2017) 1080p
Writing library : x264 core 152 r2851 ba24899
Language : English
Default : Yes
Forced : No
Audio #1
ID : 2
Format : AC-3
Format/Info : Audio Coding 3
Mode extension : CM (complete main)
Format settings, Endianness : Big
Codec ID : A_AC3
Duration : 2 h 1 min
Bit rate mode : Constant
Bit rate : 640 kb/s
Channel(s) : 6 channels
Channel positions : Front: L C R, Side: L R, LFE
Sampling rate : 48.0 kHz
Frame rate : 31.250 FPS (1536 spf)
Bit depth : 16 bits
Compression mode : Lossy
Stream size : 556 MiB (6%)
Title : AC3 5.1 Bluray
Language : Spanish
Default : Yes
Forced : No
Audio #2
ID : 3
Format : AC-3
Format/Info : Audio Coding 3
Mode extension : CM (complete main)
Format settings, Endianness : Big
Codec ID : A_AC3
Duration : 2 h 1 min
Bit rate mode : Constant
Bit rate : 640 kb/s
Channel(s) : 6 channels
Channel positions : Front: L C R, Side: L R, LFE
Sampling rate : 48.0 kHz
Frame rate : 31.250 FPS (1536 spf)
Bit depth : 16 bits
Compression mode : Lossy
Stream size : 556 MiB (6%)
Title : AC3 5.1
Language : English
Default : No
Forced : No
Text #1
ID : 4
Format : UTF-8
Codec ID : S_TEXT/UTF8
Codec ID/Info : UTF-8 Plain Text
Duration : 1 h 30 min
Bit rate : 0 b/s
Count of elements : 16
Stream size : 376 Bytes (0%)
Title : Subtit_Forz
Language : Spanish
Default : Yes
Forced : No
Text #2
ID : 5
Format : UTF-8
Codec ID : S_TEXT/UTF8
Codec ID/Info : UTF-8 Plain Text
Duration : 1 h 56 min
Bit rate : 67 b/s
Count of elements : 1724
Stream size : 57.5 KiB (0%)
Title : Subtit_Compl
Language : Spanish
Default : No
Forced : No









Buy Premium Account To Get High Speed Download
http://lupaste.com/?v=25105

0 Comentarios


Cargando comentarios espera un momento...
No tienes permisos para comentar.

Para poder comentar necesitas estar Registrado. O.. ya tienes usuario? Logueate!
Ir al cielo