Posteado por:
campitos
New Full User



E.T. The Extra-Terrestrial (1982) FullHD 1080p (Ing-Lat) [MU




TÍTULO ORIGINAL: E.T.: The Extra-Terrestrial
TÍTULO EN LATINO: E.T.: El Extraterrestre
AÑO: 1982
DURACIÓN: 115 min.
PAÍS: Estados Unidos
DIRECTOR: Steven Spielberg
GUIÓN: Melissa Mathison
MÚSICA: John Williams
FOTOGRAFÍA: Allen Daviau
REPARTO: Henry Thomas, Dee Wallace, Robert MacNaughton, Drew Barrymore, Peter Coyote, C. Thomas Howell, K.C. Martel, Sean Frye, Erika Eleniak
PRODUCTORA: Universal Pictures
PREMIOS:
1982: 4 Oscar: Música, Sonido, FX, Edición sonora. 5 nominaciones incluyendo Película.
1982: 2 Globos de Oro: Drama, Música. 3 nominaciones incluyendo Director.
1982: Premio BAFTA: Música. 11 nominaciones incluyendo Película y Director.
1982: Premios David di Donatello: Mejor director extranjero.
1982: Nominada al Cesar: Mejor película extranjera.
GÉNERO: Ciencia ficción. Fantástico. Drama | Extraterrestres. Cine familiar. Amistad. Película de culto
Sinopsis: Un pequeño ser de otro planeta se queda abandonado en la Tierra cuando su nave, al emprender el regreso, se olvida de él. Está completamente solo y tiene miedo, pero se hará amigo de un niño, que lo esconde en su casa. El pequeño y sus hermanos intentan encontrar la forma de que el pequeño extraterrestre regrese a su planeta antes de que lo encuentren los científicos y la policía.
http://www.imdb.com/title/tt0083866/
Trailer
https://youtu.be/qYAETtIIClk


Cita:


General
Complete name : E.T. - The Extra-Terrestrial (1982) 1080p.mkv
Format : Matroska
Format version : Version 2
File size : 19.3 GiB
Duration : 1h 54mn
Overall bit rate : 24.2 Mbps
Movie name : E.T.: The Extra-Terrestrial (1982) 1080p
Encoded date : UTC 2012-10-30 21:29:33
Writing application : mkvmerge v5.8.0 ('No Sleep / Pillow') built on Sep 2 2012 15:37:04
Writing library : libebml v1.2.3 + libmatroska v1.3.0
Video
ID : 1
Format : AVC
Format/Info : Advanced Video Codec
Format profile : High@L4.1
Format settings, CABAC : Yes
Format settings, ReFrames : 4 frames
Codec ID : V_MPEG4/ISO/AVC
Duration : 1h 54mn
Bit rate : 20.9 Mbps
Width : 1 920 pixels
Height : 1 040 pixels
Display aspect ratio : 16:9
Frame rate : 23.976 fps
Color space : YUV
Chroma subsampling : 4:2:0
Bit depth : 8 bits
Scan type : Progressive
Bits/(Pixel*Frame) : 0.436
Stream size : 16.7 GiB (86%)
Title : E.T.: The Extra-Terrestrial (1982) 1080p
Writing library : x264 core 128 r2216kMod 198a7ea
Language : English
Default : Yes
Forced : No
Audio #1
ID : 2
Format : AC-3
Format/Info : Audio Coding 3
Mode extension : CM (complete main)
Codec ID : A_AC3
Duration : 1h 54mn
Bit rate mode : Constant
Bit rate : 640 Kbps
Channel(s) : 6 channels
Channel positions : Front: L C R, Side: L R, LFE
Sampling rate : 48.0 KHz
Bit depth : 16 bits
Compression mode : Lossy
Stream size : 525 MiB (3%)
Title : E.T.: The Extra-Terrestrial (1982) - Latin AC3 5.1
Language : Spanish
Default : Yes
Forced : No
Audio #2
ID : 3
Format : AC-3
Format/Info : Audio Coding 3
Mode extension : CM (complete main)
Codec ID : A_AC3
Duration : 1h 54mn
Bit rate mode : Constant
Bit rate : 640 Kbps
Channel(s) : 6 channels
Channel positions : Front: L C R, Side: L R, LFE
Sampling rate : 48.0 KHz
Bit depth : 16 bits
Compression mode : Lossy
Stream size : 525 MiB (3%)
Title : E.T.: The Extra-Terrestrial (1982) - AC3 5.1
Language : English
Default : No
Forced : No
Audio #3
ID : 4
Format : DTS
Format/Info : Digital Theater Systems
Codec ID : A_DTS
Duration : 1h 54mn
Bit rate mode : Constant
Bit rate : 1 510 Kbps
Channel(s) : 6 channels
Channel positions : Front: L C R, Side: L R, LFE
Sampling rate : 48.0 KHz
Bit depth : 24 bits
Compression mode : Lossy
Stream size : 1.21 GiB (6%)
Title : E.T.: The Extra-Terrestrial (1982) - DTS 5.1
Language : English
Default : No
Forced : No
Text #1
ID : 5
Format : UTF-8
Codec ID : S_TEXT/UTF8
Codec ID/Info : UTF-8 Plain Text
Title : Subt Forz
Language : Spanish
Default : Yes
Forced : No
Text #2
ID : 6
Format : UTF-8
Codec ID : S_TEXT/UTF8
Codec ID/Info : UTF-8 Plain Text
Title : Subt
Language : Spanish
Default : No
Forced : No
Text #3
ID : 7
Format : UTF-8
Codec ID : S_TEXT/UTF8
Codec ID/Info : UTF-8 Plain Text
Title : Subt
Language : English
Default : No
Forced : No







http://lupaste.com/?v=24674

0 Comentarios


Cargando comentarios espera un momento...
No tienes permisos para comentar.

Para poder comentar necesitas estar Registrado. O.. ya tienes usuario? Logueate!
Ir al cielo