Posteado por:
campitos
New Full User



Deep Impact (1998) FullHD 1080p (Ing-Lat) [MULTI]




Título original: Deep Impact
Año: 1998
Duración: 121 Minutos
País: Estados Unidos
Director: Mimi Leder
Reparto: Robert Duvall, Téa Leoni, Elijah Wood, Vanessa Redgrave, Maximilian Schell, Morgan Freeman, Leelee Sobieski, James Cromwell, Richard Schiff, Jon Favreau, Laura Innes, Ron Eldard, Blair Underwood, Cynthia Ettinger, Mary McCormack
Productora: Dreamworks / Paramount Pictures
Sinopsis : Leo Biederman se ha apuntado al Club de Astronomía del colegio, más para estar con Sarah Hotchner que para mirar el cielo. Un día descubre en un cúmulo de estrellas una gran mancha blanca que resulta ser un cometa que está a punto de chocar con la Tierra. Mientras tanto, Jenny Learner, una ambiciosa reportera de la NBC, rastreando una posible historia escandalosa de un senador, descubre accidentalmente que Ellie (E.L.E.) no es el nombre de su amante, sino de un cometa que amenaza con destruir la Tierra.
http://www.imdb.com/title/tt0120647
Trailer
https://youtu.be/NTkfk4dCnu8


Cita:


Format : Matroska
Format version : Version 4 / Version 2
File size : 13.2 GiB
Duration : 2 h 1 min
Overall bit rate : 15.6 Mb/s
Movie name : Deep.Impact.1998.1080p.BluRay.x264.DTS-FGT
Encoded date : UTC 2017-09-23 11:43:21
Writing application : mkvmerge v15.0.0 ('Duel with the Devil') 64-bit
Writing library : libebml v1.3.5 + libmatroska v1.4.5
Video
ID : 1
Format : AVC
Format/Info : Advanced Video Codec
Format profile : High@L4.1
Format settings, CABAC : Yes
Format settings, ReFrames : 5 frames
Codec ID : V_MPEG4/ISO/AVC
Duration : 2 h 1 min
Bit rate : 13.4 Mb/s
Width : 1 920 pixels
Height : 816 pixels
Display aspect ratio : 2.35:1
Frame rate mode : Constant
Frame rate : 23.976 (24000/1001) FPS
Color space : YUV
Chroma subsampling : 4:2:0
Bit depth : 8 bits
Scan type : Progressive
Bits/(Pixel*Frame) : 0.357
Stream size : 11.3 GiB (86%)
Writing library : x264 core
Language : English
Default : Yes
Forced : No
Color range : Limited
Color primaries : BT.709
Transfer characteristics : BT.709
Matrix coefficients : BT.709
Audio #1
ID : 3
Format : AC-3
Format/Info : Audio Coding 3
Mode extension : CM (complete main)
Format settings, Endianness : Big
Codec ID : A_AC3
Duration : 2 h 1 min
Bit rate mode : Constant
Bit rate : 640 kb/s
Channel(s) : 6 channels
Channel positions : Front: L C R, Side: L R, LFE
Sampling rate : 48.0 kHz
Frame rate : 31.250 FPS (1536 spf)
Bit depth : 16 bits
Compression mode : Lossy
Stream size : 555 MiB (4%)
Language : Spanish
Default : Yes
Forced : Yes
Audio #2
ID : 2
Format : DTS
Format/Info : Digital Theater Systems
Mode : 16
Format settings, Endianness : Big
Codec ID : A_DTS
Duration : 2 h 1 min
Bit rate mode : Constant
Bit rate : 1 509 kb/s
Channel(s) : 6 channels
Channel positions : Front: L C R, Side: L R, LFE
Sampling rate : 48.0 kHz
Frame rate : 93.750 FPS (512 spf)
Bit depth : 24 bits
Compression mode : Lossy
Stream size : 1.28 GiB (10%)
Language : English
Default : No
Forced : No
Audio #2
ID : 3
Format : AC-3
Format/Info : Audio Coding 3
Mode extension : CM (complete main)
Format settings, Endianness : Big
Codec ID : A_AC3
Duration : 2 h 1 min
Bit rate mode : Constant
Bit rate : 640 kb/s
Channel(s) : 6 channels
Channel positions : Front: L C R, Side: L R, LFE
Sampling rate : 48.0 kHz
Frame rate : 31.250 FPS (1536 spf)
Bit depth : 16 bits
Compression mode : Lossy
Stream size : 555 MiB (4%)
Language : Spanish
Default : Yes
Forced : Yes
Text
ID : 4
Format : PGS
Muxing mode : zlib
Codec ID : S_HDMV/PGS
Codec ID/Info : Picture based subtitle format used on BDs/HD-DVDs
Duration : 1 h 52 min
Bit rate : 35.5 kb/s
Count of elements : 2700
Stream size : 28.5 MiB (0%)
Language : Spanish
Default : No
Forced : No







http://lupaste.com/?v=24673

0 Comentarios


Cargando comentarios espera un momento...
No tienes permisos para comentar.

Para poder comentar necesitas estar Registrado. O.. ya tienes usuario? Logueate!
Ir al cielo